#TITLE:D2RCR MegaMAX;
#SUBTITLE:;
#ARTIST:Omega, 2MB, & DM Ashura;
#TITLETRANSLIT:;
#SUBTITLETRANSLIT:;
#ARTISTTRANSLIT:;
#CREDIT:;
#BANNER:d2rcr_megamax.png;
#BACKGROUND:d2rcr_megamax-bg.png;
#LYRICSPATH:;
#CDTITLE:d2rcr-black.PNG;
#MUSIC:d2rcr_megamax.MP3;
#OFFSET:-0.410;
#SAMPLESTART:13.150;
#SAMPLELENGTH:12.000;
#SELECTABLE:YES;
#BPMS:0.000=300.000,160.000=150.000,192.000=300.000,256.000=105.000,257.000=100.000,258.000=77.000,258.250=66.000,258.500=55.000,258.750=30.000,259.000=299.999,386.000=149.999;
#STOPS:259.000=0.640
;
#BGCHANGES:;
// cache tags:
#FIRSTBEAT:16.000;
#LASTBEAT:397.000;
#SONGFILENAME:Songs/Music V.I.P ^_^/D2RCR Megamix/d2rcr_megamax.sm;
#HASMUSIC:1;
#HASBANNER:1;
#MUSICLENGTH:107.180;
// end cache tags

//---------------dance-single - HEAVY----------------
#NOTES:
     dance-single:
     HEAVY:
     Hard:
     10:
     0.784,0.926,0.299,0.140,0.056,541.000,32.000,15.000,0.000,1.000:
0000
0000
0000
0000
,
0000
0000
0000
0000
,
0000
0000
0000
0000
,
0000
0000
0000
0000
,
1000
0000
0010
0000
0100
0001
0000
0100
,
0001
0000
0010
0000
0100
1000
0000
0100
,
1000
0000
0100
0000
0010
0001
0000
0001
,
0010
0100
1001
0000
,
1000
0000
0010
0000
1000
0010
0000
0010
,
1000
0000
0100
0000
0001
0100
0000
0100
,
0001
0000
0010
0000
0001
0010
0000
0001
,
0100
0010
1001
0000
,
0100
0000
1000
0100
1000
0100
1000
0100
,
1000
0000
0001
0010
0001
0010
0001
0010
,
0001
0010
0100
0000
1000
0100
1000
0000
,
0001
0010
0100
1000
0010
0100
0001
0010
,
0001
0100
0001
0010
0000
0100
0000
1000
,
0010
1000
0010
1000
0000
0100
0000
0010
,
0001
0010
0001
0100
0000
1000
0000
0100
,
0010
0000
0001
0000
0010
0001
1000
0000
,
0100
0010
0100
0010
0000
0001
0000
0010
,
0100
1000
0001
0010
0000
0001
0000
0010
,
0100
0010
0100
0010
0000
0001
0000
0010
,
0100
0000
1001
0000
,
1000
0100
1000
0100
0000
0010
0000
0001
,
0010
0001
0010
0100
0000
1000
0000
0001
,
0100
0001
0100
0001
0000
0010
0000
0100
,
1010
1001
0101
1001
,
0010
0001
0010
0001
0000
0100
0000
1000
,
0100
0010
0001
0100
0000
0010
0000
1000
,
0100
1000
0100
1000
0000
0100
0000
0010
,
0101
1001
1010
1001
,
0010
0100
1000
0001
0010
0001
0010
0000
,
0100
1000
0001
0010
0100
1000
0010
0000
,
0100
0001
0010
0100
1000
0010
0100
0001
,
1010
1010
0101
0101
,
1000
0100
1000
0100
0000
0010
0001
0000
,
0001
0010
0001
0010
0000
1000
0100
0000
,
0001
1000
0001
1000
0000
1000
0001
0000
,
1100
1100
0011
0011
,
0001
0010
0000
0010
0001
0000
1000
0100
0000
0100
1000
0000
0100
0000
0010
0000
,
0002
0010
0010
0010
0100
0100
0100
0000
,
1003
0001
0000
0001
1000
0000
0100
0010
0000
0001
0010
0000
0001
0000
0100
0000
,
1000
0010
0000
1000
0100
0000
0001
0010
0000
0001
0010
0000
0100
0000
0000
0000
,
2000
0100
0100
0100
0010
0010
0010
0000
,
0200
0000
0300
0002
0000
0003
3020
0000
,
0032
0200
0320
0030
,
0200
0000
0303
2000
0000
3000
0010
0000
,
0100
1000
0000
0001
0010
0000
0010
0001
,
0000
0001
0100
0000
0010
0000
0100
0000
,
0010
0001
0000
0001
0010
0000
0100
1000
,
0000
1000
0100
0000
0010
0000
0100
0000
,
0001
0010
0000
0001
0010
0000
1000
0100
,
0000
1000
0001
0000
1010
0000
0101
0000
,
1000
0001
0000
0001
1000
0000
0100
0010
,
0000
0010
0100
0000
1001
0000
1001
0000
,
1000
0100
1000
0000
1000
0100
1000
0000
,
0001
0010
0001
0000
0001
0010
0001
0000
,
1000
0001
0010
0000
0100
0010
1000
0000
,
0001
0100
0010
0000
0001
1000
0100
0000
,
1000
0100
0010
0001
0100
0010
1000
0001
,
0010
0100
1000
0010
0100
0001
1000
0100
,
0010
0001
0100
0010
1000
0100
0010
0001
,
1000
0100
1000
0001
0010
0001
0010
0000
,
2002
0000
0000
3003
,
0001
0010
0001
0010
0001
0000
1000
0100
,
1000
0100
1000
0000
0100
0000
0010
0000
,
0001
0010
0001
0010
0100
0000
1000
0100
,
1000
0100
0010
0001
0010
0001
0010
0001
,
0010
0000
1000
0100
1000
0100
1000
0000
,
0001
0000
0010
0000
0100
1000
0001
0000
,
0010
0100
0001
0010
0001
0000
1000
0000
,
0100
0010
0001
1000
0100
0010
0001
0000
,
0100
0010
0100
0010
0100
0000
1000
0100
,
1000
0100
1000
0000
0100
0010
0100
0010
,
0100
0000
1000
0100
1000
0010
1000
0000
,
0001
0010
0001
0100
0001
0000
0010
0100
,
0010
0001
1000
0000
0001
0010
0100
1000
,
0010
0000
0001
0010
0001
0100
0001
0000
,
1000
0100
0010
0001
0100
0000
1000
0100
,
0010
0001
0100
0010
1000
0001
0010
0100
,
1000
0000
0010
0100
0000
0100
0010
0000
,
1001
0000
0110
0000
0000
1001
0000
0000
,
1001
0000
0010
0100
0000
0100
0010
0000
,
1001
0000
1010
0000
0000
1001
0000
0000
,
1000
0000
0100
0010
0000
0001
0100
0000
,
0010
0000
1000
0100
0000
0100
1000
0000
,
0100
0000
0010
0001
0000
0001
0010
0000
,
0100
1000
0001
0010
0100
1000
0010
0100
,
0001
0000
0010
0100
0000
1000
0001
0000
,
0010
0000
0100
1000
0000
0010
0100
0000
,
0010
0000
0001
0010
0000
0100
0001
0000
,
0010
0100
1000
0010
0100
0001
0010
0100
,
1000
0010
0100
0000
0001
1000
0100
0000
,
1000
0001
0010
0000
0100
1000
0001
0000
,
0010
0100
1000
0001
0010
0100
1000
0010
,
0100
0001
1000
0100
0020
0000
0000
0000
,
0000
0000
0030
0000
,
0000
0000
0000
2002
,
0000
3003
0000
0000
;

//---------------dance-single - CHALLENGE----------------
#NOTES:
     dance-single:
     CHALLENGE:
     Challenge:
     10:
     0.888,1.000,0.448,0.056,0.117,612.000,48.000,6.000,0.000,0.000:
0000
0000
0000
0000
,
0000
0000
0000
0000
,
0000
0000
0000
0000
,
0000
0000
0000
0000
,
1000
0100
0010
0001
0100
0010
0000
0100
,
0001
1000
0100
0010
0001
1000
0000
0100
,
1000
0000
0010
0000
0100
1000
0000
1000
,
0100
1001
1001
0000
,
1000
0001
0010
0000
1000
0100
0010
0000
,
1000
0010
0100
0000
0001
1000
0000
1000
,
0001
0000
0100
0000
0010
0100
1000
0001
,
0010
0100
1001
0000
,
0100
0000
1000
0001
1000
0001
1000
0001
,
1000
0000
0001
0100
0001
0100
0001
0100
,
0001
0100
1000
0000
0100
0010
0100
0000
,
0001
0010
0100
1000
0010
0100
0001
0010
,
0001
0100
0001
0010
0000
0100
0000
1000
,
0010
1000
0100
1000
0000
0110
0000
0010
,
0001
0010
0100
1000
0000
0110
0000
0010
,
0001
0000
0100
0000
0010
0001
1000
0000
,
0100
0010
0100
0001
0000
0010
0000
0100
,
1000
0100
0001
0010
0000
0001
0000
1000
,
0001
1000
0001
1000
0000
0100
0000
0010
,
0001
0010
0001
0000
0110
0000
0000
0000
,
1000
0100
1000
0100
0010
0001
0010
0000
,
0010
0001
0010
0100
1000
0010
0100
0001
,
0100
0001
0100
0001
0000
0010
0000
0100
,
1010
1010
0101
0101
,
0010
0001
0010
0001
0000
0100
0000
1000
,
0100
0010
0001
0100
0000
0010
0000
1000
,
0100
1000
0100
1000
0010
0100
0001
0010
,
0101
0101
1010
1010
,
1000
0010
0100
0010
0000
0001
0010
0100
,
0001
0010
0001
0100
0000
0010
1000
0010
,
0100
0010
0001
1000
0100
0010
0001
0000
,
0101
0101
1010
1010
,
1000
0010
1000
0100
0000
0010
0001
0010
,
0001
0100
0001
0100
0000
0001
0100
0000
,
0001
1000
0001
1000
0001
1000
0001
0000
,
1100
1100
0011
0011
,
0001
0100
0000
0100
0001
0000
1000
0010
0000
0010
1000
0000
0100
0001
0010
0000
,
0001
0010
0000
0010
0001
0000
0010
0100
0000
0100
0010
0000
0100
0001
0010
0000
,
1000
0100
0000
0010
1000
0000
0100
0010
0000
0001
0010
0000
0001
0010
0100
0000
,
1000
0010
0000
1000
0100
0000
0001
0010
0000
0001
0010
0000
0100
1000
0010
0000
,
1000
0100
0000
0010
0001
0000
0010
0100
0000
1000
0100
0000
0010
0001
1000
0000
,
0110
0000
0110
1001
0000
1001
0110
0000
,
0001
0010
0100
1000
0001
0010
0100
1000
,
0010
0100
0001
1000
0100
0010
0001
0010
,
0100
1000
0000
0001
0100
0000
0100
0010
,
0000
0010
0100
0000
1001
0000
1001
0000
,
0010
0001
0000
1000
0100
0000
0010
0001
,
1000
0100
0010
0001
0100
0000
1001
0000
,
1000
0010
0000
1000
0010
0000
1000
0100
,
0000
1000
0100
0000
1010
0000
0101
0000
,
1000
0010
0000
0100
1000
0000
0100
0010
,
0001
0010
0100
0000
1001
0000
1001
0000
,
1010
1010
0101
0101
,
0011
0011
1100
1100
,
1000
0100
0010
0001
0100
0010
1000
0000
,
0001
0010
0100
1000
0010
0100
0001
0000
,
0100
0010
0001
0100
0010
1000
0100
0010
,
0001
0100
0010
1000
0001
0010
0100
1000
,
0010
0100
0001
0010
0001
1000
0100
1000
,
0100
0010
0001
0100
0001
0010
0100
0000
,
2002
0000
0000
3003
,
0001
0100
0001
0010
0001
0000
1000
0010
,
1000
0100
1000
0000
0110
0000
0110
0000
,
0001
0010
0001
0010
0100
0000
1000
0100
,
1000
0100
0010
0100
0010
0001
0010
0001
,
0010
0000
1000
0100
0010
0001
0100
0000
,
1001
0000
0010
0001
1000
0100
0010
0001
,
0100
0010
1000
0001
0010
0000
1000
0000
,
0100
0010
0001
1000
0100
0010
0001
0000
,
0001
0100
0001
0100
0001
0000
1000
0100
,
1000
0100
1000
0000
0100
0010
0100
0010
,
0001
0000
1000
0100
1000
0010
1000
0000
,
0001
0010
0001
0100
0001
0000
0010
0100
,
0010
0001
1000
0000
0001
0010
0100
1000
,
0010
0000
0001
0010
0001
0100
0001
0000
,
1000
0100
0010
0001
0100
0010
1000
0100
,
0010
0001
0100
0010
1000
0001
0010
0100
,
1000
0100
1000
0100
0000
0010
0001
0100
,
0010
1000
0100
1000
0000
0100
0010
0001
,
0100
0010
1000
0100
0000
0010
0001
0010
,
0001
0010
0100
1000
0010
0100
0001
1000
,
0100
0010
0001
0100
0000
0010
0100
0000
,
1000
0001
0010
0100
0000
1000
0001
0010
,
0001
0010
0001
0010
0000
0100
1000
0100
,
1000
0010
1000
0001
1000
0010
1000
0100
,
1000
0100
0010
0001
0000
0100
0010
1000
,
0100
0010
0001
0100
0000
0010
1000
0100
,
0010
0001
0100
0010
0000
1000
0100
0010
,
0001
0010
0100
1000
0010
0100
0001
0010
,
0100
1000
0010
0100
0001
1000
0100
0010
,
0001
0100
0010
1000
0100
0010
0001
0100
,
0010
1000
0100
1000
0100
0010
0001
0100
,
0010
1000
0100
0010
2002
0000
0000
0000
,
0000
0000
3003
0000
,
0000
0000
0000
2002
,
0000
3003
0000
0000
;

//---------------dance-single - STANDARD----------------
#NOTES:
     dance-single:
     STANDARD:
     Medium:
     9:
     0.621,0.787,0.271,0.485,0.000,385.000,29.000,52.000,0.000,0.000:
0000
0000
0000
0000
,
0000
0000
0000
0000
,
0000
0000
0000
0000
,
0000
0000
0000
0000
,
1000
0010
0200
0300
,
0001
0010
2000
3000
,
0010
0100
0001
0010
,
0100
1000
0020
0030
,
0001
0010
1000
0100
,
0010
0001
0100
0010
,
0001
1000
0010
0100
,
0001
0010
0002
0003
,
1000
0100
0010
0001
,
1000
0100
0010
0001
,
0100
0010
1000
0100
,
0010
0001
1000
0100
0010
0001
1000
0100
,
0010
0001
0020
0030
,
0100
1000
0002
0003
,
0010
0100
2000
3000
,
0100
0010
1001
0000
,
0001
0010
0002
0003
,
1000
0100
2000
3000
,
0100
0010
0001
1000
,
0100
0000
2002
3003
,
1000
0100
0001
0100
,
1000
0100
0001
0100
,
1000
0100
0010
0001
,
0012
0013
2100
3100
,
0010
0001
0200
0300
,
0010
1000
0200
0300
,
0001
0010
0100
1000
,
2100
3100
0012
0013
,
0001
0100
0001
0100
,
0001
0010
0001
0010
,
0100
1000
0010
1000
,
2010
3010
0012
0013
,
0101
2100
0200
3300
,
1100
0012
0020
0033
,
1001
0120
0200
0330
,
1001
1010
1001
0101
,
2002
0000
0000
0003
,
0020
0000
0030
0200
0000
0300
0010
3000
,
0002
0100
1000
0010
,
0020
0000
0030
0200
0000
0300
0013
0000
,
0100
1000
0001
0010
0100
1000
0010
0100
,
0002
0000
0003
0020
0000
0130
0200
0000
,
1300
0100
1001
0000
0001
0010
1001
0000
,
0100
0010
0001
1000
0100
0010
0001
0100
,
0010
0001
0100
0010
,
1000
0100
0010
0001
,
0100
0010
1000
0100
,
0011
0011
0022
0033
,
0001
1000
0001
1000
,
0001
0100
0001
0100
,
0001
0010
0100
1000
,
0110
0110
0220
0330
,
1000
0000
0100
0000
1000
0100
0000
0000
,
0001
0000
0010
0000
0001
0010
0000
0000
,
1000
0000
0001
0000
0010
0100
0000
0000
,
0001
0000
1000
0000
0010
0100
0000
0000
,
0001
0010
0100
1000
,
0010
0100
0001
0010
,
0001
0010
0001
0000
1000
0100
1000
0000
,
0100
0010
0001
1000
0100
0010
0001
0000
,
2002
0000
0000
3003
,
0001
0000
0010
0100
0010
0000
1000
0000
,
0001
0010
0001
0000
0010
0000
0100
0000
,
1000
0100
1000
0000
0001
0010
0001
0000
,
0010
0000
0100
0000
1000
0001
0010
0000
,
0100
0000
1000
0000
0001
0010
0001
0000
,
0010
0100
1000
0001
,
0010
1000
0100
0010
,
0001
0010
0001
0000
0010
0000
0100
0000
,
1000
1000
2000
3100
,
0100
0200
0310
0010
,
0020
0031
0001
0002
,
0013
1000
2000
3100
,
0001
0002
0013
0100
,
2000
3010
0100
0002
,
0013
0100
1000
0001
,
0010
0100
1000
0001
0010
0100
1000
0000
,
0010
0000
0100
0000
1000
0100
0000
1000
,
0100
0000
0010
0000
0001
0010
0000
0010
,
0001
0010
0100
1000
,
0010
0100
0010
0000
0001
0000
0000
0000
,
0001
0000
0010
0000
0100
1000
0000
1000
,
0100
0000
0010
0000
0001
0010
0000
0010
,
0001
0010
0100
1000
,
0010
0100
0010
0000
0001
0000
0000
0000
,
0001
0000
0010
0000
0100
1000
0000
0001
,
0010
0000
0001
0000
0010
0100
0000
1000
,
0001
0000
0010
0000
0100
1000
0000
1000
,
0100
0010
0001
0000
,
0010
0100
1000
0010
,
0100
0001
0010
0001
,
0010
0100
1000
0001
0010
0100
1000
0010
,
0100
0001
0010
0000
0002
0000
0000
0000
,
0000
0000
0000
0003
,
0000
0000
0000
2002
,
0000
3003
0000
0000
;

//---------------dance-single - LIGHT----------------
#NOTES:
     dance-single:
     LIGHT:
     Easy:
     6:
     0.425,0.463,0.336,0.224,0.000,259.000,36.000,24.000,0.000,0.000:
0000
0000
0000
0000
,
0000
0000
0000
0000
,
0000
0000
0000
0000
,
0000
0000
0000
0000
,
1000
0100
1000
0000
,
0001
0010
0001
0000
,
1000
0100
0010
0001
,
1000
0100
0010
0000
,
0001
0010
0001
0000
,
1000
0100
0010
0000
,
0001
0100
0010
0000
,
1001
0000
0110
0000
,
1000
0100
0001
0000
,
0001
0100
1000
0000
,
0100
0001
0010
0000
,
1001
0000
0110
0000
,
1000
0100
0010
0000
,
0001
0100
0010
0000
,
1000
0001
0100
0000
,
2002
0000
3003
0000
,
0100
0010
0100
0000
,
0010
0001
1000
0000
,
0100
0010
0001
0100
,
0010
0000
1001
0000
,
0100
0010
0001
0000
,
0100
0010
1000
0000
,
0001
0010
0100
0000
,
1001
0000
0110
0000
,
1000
0010
0100
0000
,
0001
0010
0001
0000
,
1000
0100
1000
0000
,
0110
0000
1001
0000
,
0100
0010
1000
0000
,
0001
0010
0001
0000
,
1000
0100
0001
0000
,
0110
0000
1001
0000
,
0010
0100
0010
0000
,
0100
0010
0100
0000
,
0001
0010
0100
0000
,
1010
0000
0101
0000
,
2002
0000
0000
3000
,
0200
0000
0300
0020
0000
0030
0103
0000
,
2000
0000
0000
0000
,
0200
0000
0300
0020
0000
0030
3001
0000
,
0200
0000
0000
0000
,
0002
0000
0003
1000
0000
0000
0310
0000
,
0022
0000
0000
0030
,
0100
0000
0000
1000
0000
0000
0103
0000
,
2000
3000
0200
0300
,
0020
0030
0002
0003
,
0200
0300
0020
0030
,
1001
0000
0110
0000
,
1000
0100
1000
0000
,
0001
0010
0001
0000
,
1000
0100
0001
0000
,
0110
0000
1001
0000
,
0100
0010
0100
0000
,
0010
0001
0100
0000
,
1000
0100
0010
0000
,
0001
0100
0010
0000
,
1000
0100
1000
0100
,
1000
0100
0010
0001
,
0010
0001
0010
0000
,
1001
0000
0110
0000
,
2002
0000
0000
3003
,
0100
0010
0001
0000
,
1000
0100
0000
0001
,
0010
0001
0010
0000
,
0100
1000
0000
0001
,
0010
0100
1000
0010
,
0100
0001
0000
0010
,
0100
0010
0100
1000
,
0010
0100
0010
0000
,
1001
0000
0110
0000
,
1001
0000
0110
0000
,
1010
0000
1100
0000
,
0101
0000
0011
0000
,
1001
0000
0110
0000
,
1001
0000
0110
0000
,
1000
0100
1000
0000
,
0001
0010
0001
0000
,
0010
0100
1000
0000
,
0001
0010
0001
0000
,
1000
0100
0010
0001
,
0100
0010
1000
0100
,
0010
0001
0010
0000
,
0100
1000
0001
0000
,
0010
0100
0010
0000
,
0001
0010
0100
1000
,
0010
0100
0100
0000
,
0001
0010
0010
0000
,
0100
1000
1000
0000
,
0100
0010
0001
0100
,
0010
0010
0010
0000
,
0001
0001
0001
0000
,
1000
1000
1000
0000
,
0100
0100
0200
0000
,
0000
0000
0000
0300
,
0000
0000
0000
2002
,
0000
3003
0000
0000
;
